* Dettagli Torrent   globale  | Commenti (0) 


- Fantasia (1940) Original Version.H264.italian.english.Ac3-5.1.sub.ita.eng-MIRCrew -


Download via torrent:
Categoria bittorrent BDRip
Descrizione
Visitate mircrew-releases

Fantasia (1940) Original Version.H264.italian.english.Ac3-5.1.sub.ita.eng-MIRCrew

[b][color=red]
NO FOUND ONLY ORIGINAL RELEASE



My release is always in double track audio italian and Original audio
for select it use VLC or dvd player home
not use wmp

Fantasia

(1940)








Titolo originale Fantasia
Lingua originale inglese
Paese di produzione USA
Anno 1940
Durata 125 min (versione originale) 117 min (versione tagliata)
Rapporto 1.37:1
Genere animazione, fantastico, musicale



*************************



Fantasia è un film d'animazione del 1940 diretto da registi vari, prodotto da Walt Disney e distribuito dalla Walt Disney Productions. Con la direzione di storia di Joe Grant e Dick Huemer, e la supervisione di produzione di Ben Sharpsteen, è il terzo Classico Disney. Il film è composto da otto segmenti animati impostati su pezzi di musica classica diretti da Leopold Stokowski, sette dei quali sono eseguiti dall'Orchestra di Filadelfia. Il critico musicale e compositore Deems Taylor agisce come "maestro di cerimonie", introducendo ogni segmento in scene live action interstiziali.



Disney animators set pictures to Western classical music as Leopold Stokowski conducts the Philadelphia Orchestra. "The Sorcerer's Apprentice" features Mickey Mouse as an aspiring magician who oversteps his limits. "The Rite of Spring" tells the story of evolution, from single-celled animals to the death of the dinosaurs. "Dance of the Hours" is a comic ballet performed by ostriches, hippos, elephants, and alligators. "Night on Bald Mountain" and "Ave Maria" set the forces of darkness and light against each other as a devilish revel is interrupted by the coming of a new day










General
Unique ID                                : 208853765581911090601933371855004285829 (0x9D1FC5A93653AA1788A6DA43B9E4BB85)
Complete name                            : Fantasia (1940).H264.ita.eng.sub.ita.eng-MIRCrewFantasia (1940).H264.ita.eng.sub.ita.eng-MIRCrew.mkv
Format                                   : Matroska
Format version                           : Version 2
File size                                : 1.45 GiB
Duration                                 : 2h 4mn
Overall bit rate                         : 1 670 Kbps
Movie name                               : MIRCrew
Encoded date                             : UTC 2018-09-04 09:09:58
Writing application                      : mkvmerge v5.4.0 ('Piper&#39 built on Mar 10 2012 13:34:39
Writing library                          : Lavf54.63.100
COPYRIGHT                                : robbyrs
Language                                 : eng

Video
ID                                       : 1
Format                                   : AVC
Format/Info                              : Advanced Video Codec
Format profile                           : [email protected]
Format settings, CABAC                   : Yes
Format settings, ReFrames                : 2 frames
Codec ID                                 : V_MPEG4/ISO/AVC
Duration                                 : 2h 4mn
Bit rate                                 : 1 300 Kbps
Width                                    : 704 pixels
Height                                   : 528 pixels
Display aspect ratio                     : 4:3
Frame rate mode                          : Variable
Frame rate                               : 23.976 fps
Color space                              : YUV
Chroma subsampling                       : 4:2:0
Bit depth                                : 8 bits
Scan type                                : Progressive
Bits/(Pixel*Frame)                       : 0.146
Stream size                              : 1.09 GiB (75%)
Writing library                          : x264 core 130 r2273
Encoding settings                        : cabac=1 / ref=2 / deblock=1:0:0 / analyse=0x1:0x131 / me=hex / subme=7 / psy=1 / psy_rd=1.00:0.00 / mixed_ref=0 / me_range=16 / chroma_me=1 / trellis=1 / 8x8dct=0 / cqm=0 / deadzone=21,11 / fast_pskip=1 / chroma_qp_offset=-2 / threads=3 / lookahead_threads=1 / sliced_threads=0 / nr=0 / decimate=1 / interlaced=0 / bluray_compat=0 / constrained_intra=0 / bframes=3 / b_pyramid=0 / b_adapt=1 / b_bias=0 / direct=3 / weightb=1 / open_gop=0 / weightp=2 / keyint=230 / keyint_min=23 / scenecut=40 / intra_refresh=0 / rc_lookahead=40 / rc=abr / mbtree=1 / bitrate=1300 / ratetol=1.0 / qcomp=0.60 / qpmin=10 / qpmax=69 / qpstep=4 / vbv_maxrate=24000 / vbv_bufsize=24000 / nal_hrd=none / ip_ratio=1.40 / aq=1:1.00
Language                                 : Italian
Default                                  : Yes
Forced                                   : No

Audio #1
ID                                       : 2
Format                                   : AC-3
Format/Info                              : Audio Coding 3
Mode extension                           : CM (complete main)
Codec ID                                 : A_AC3
Duration                                 : 2h 4mn
Bit rate mode                            : Constant
Bit rate                                 : 192 Kbps
Channel(s)                               : 2 channels
Channel positions                        : Front: L R
Sampling rate                            : 48.0 KHz
Bit depth                                : 16 bits
Compression mode                         : Lossy
Delay relative to video                  : -5ms
Stream size                              : 171 MiB (11%)
Title                                    : Italian AC3 5.1
Language                                 : English
Default                                  : No
Forced                                   : No

Audio #2
ID                                       : 3
Format                                   : AC-3
Format/Info                              : Audio Coding 3
Mode extension                           : CM (complete main)
Codec ID                                 : A_AC3
Duration                                 : 2h 4mn
Bit rate mode                            : Constant
Bit rate                                 : 192 Kbps
Channel(s)                               : 2 channels
Channel positions                        : Front: L R
Sampling rate                            : 48.0 KHz
Bit depth                                : 16 bits
Compression mode                         : Lossy
Delay relative to video                  : -5ms
Stream size                              : 171 MiB (11%)
Title                                    : English Ac3 5.1
Language                                 : English
Default                                  : No
Forced                                   : No

Menu
00:00:00.000                             : :Opening / Narrator's Introduction
00:03:59.114                             : :"Toccata and Fuge in D Minor" Johann Sebastian Bach
00:13:39.819                             : :Narrator's Introduction
00:14:20.860                             : :"the Nutcracker Suite" Pyotr Ilyich Tchaikovsky
00:28:48.143                             : :Narrator's Introduction
00:29:49.997                             : :"the Sorcerer's Apprentice" - Paul Dukas
00:39:36.374                             : :Narrator's Introduction
00:42:42.560                             : :"the Rite of Spring" - Igor Stravinsky
01:05:23.920                             : :Intermission
01:08:45.538                             : :Meet the Soundtrack
01:12:12.537                             : :Narrator's Introduction
01:13:52.845                             : :"the Pastoral Symphony" - Ludwig Van Beethoven
01:36:10.765                             : :Narrator's Introduction
01:37:01.816                             : :"Dance of the Hours" - Amilcare Ponchielli
01:49:20.971                             : :Narrator's Introduction
01:50:27.621                             : :"Night on Bald Mountain" - Modeste Moussorgsky
01:58:25.098                             : :"Ave Maria" - Franz Schubert



Info: Per scaricare devi usare un client come uTorrent o Transmission
AnnounceURL
udp://tracker.coppersurfer.tk:6969/announce
Hash 70c0aa7e6e96a19bc5e5367731b42c8bf3c2cfa7
Peers seeds: 53 , leech: 5
Size 1.45 GB
Completato 1222x
Aggiunto 10.11.18 - 17:11:34
Uploader   robbyrs
Votazione (Voti: 1)


Condividi questo bittorrent:


html/blog:


bbcode/forum:




Aggiungi Commento


counter Baixar toque para celular | Kapcsolat | One Piece 550 Marine Headquarters